Avengers Age of Ultron (2015) RU CAM XVID torrent

Hollywood movies

Avengers: Age of Ultron (2015) on IMDb

Download Avengers Age of Ultron (2015) RU CAM XVID torrent

LANGUAGE IS IN RUSSIAN

[toggle title=”Plot”]
Storyline: When Tony Stark tries to jumpstart a dormant peacekeeping program, things go awry and Earth’s Mightiest Heroes, including Iron Man, Captain America, Thor, The Incredible Hulk, Black Widow and Hawkeye, are put to the ultimate test as the fate of the planet hangs in the balance. As the villainous Ultron emerges, it is up to The Avengers to stop him from enacting his terrible plans, and soon uneasy alliances and unexpected action pave the way for a global adventure.

source : uniongang ty
Format : AVI
Format/Info : Audio Video Interleave
File size : 1.33 GiB
Duration : 2h 12mn
Overall bit rate : 1 431 Kbps

Video
ID : 0
Format : MPEG-4 Visual
Format profile : Advanced Simple@L5
Format settings, BVOP : 2
Format settings, QPel : No
Format settings, GMC : No warppoints
Format settings, Matrix : Default (H.263)
Codec ID : XVID
Codec ID/Hint : XviD
Duration : 2h 12mn
Bit rate : 1 324 Kbps
Width : 720 pixels
Height : 304 pixels
Display aspect ratio : 2.35:1
Frame rate : 29.970 fps
Color space : YUV
Chroma subsampling : 4:2:0
Bit depth : 8 bits
Scan type : Progressive
Compression mode : Lossy
Bits/(Pixel*Frame) : 0.202
Stream size : 1.23 GiB (93%)
Writing library : XviD 73

Audio
ID : 1
Format : AC-3
Format/Info : Audio Coding 3
Mode extension : CM (complete main)
Format settings, Endianness : Big
Codec ID : 2000
Duration : 2h 12mn
Bit rate mode : Constant
Bit rate : 96.0 Kbps
Channel(s) : 2 channels
Channel positions : Front: L R
Sampling rate : 32.0 KHz
Bit depth : 16 bits
Compression mode : Lossy
Stream size : 91.1 MiB (7%)
Alignment : Aligned on interleaves
Interleave, duration : 48 ms (1.44 video frame)
[/toggle]

[toggle title=”SCREENSHOT”]

Download Avengers Age of Ultron (2015) RU CAM XVID torrent

Download Avengers Age of Ultron (2015) RU CAM XVID torrent

Download Avengers Age of Ultron (2015) RU CAM XVID torrent

Download Avengers Age of Ultron (2015) RU CAM XVID torrent

Download Avengers Age of Ultron (2015) RU CAM XVID torrent
click on links below
[/toggle]
click on links below

Download Avengers Age of Ultron (2015) RU CAM XVID torrent

Download via Torrent

Click Here To Download

24Uploading (Recommended)

Click Here to Download

Uploaded

Click Here to Download

RapidGator

Click Here to Download
 

Leave a comment

Search

Back to Top